Schnabel:Bach:Italian Concero BWV971;Toccatas BWV911&912;Concerto No.2 for Two Keyboards BWV1061

8.6 38人评价

Artur Schnabel / 古典 / 2008

Schnabel:Bach:Italian Concero BWV971;Toccatas BWV911&912;Concerto No.2 for Two Keyboards BWV1061的曲目列表

[Schnabel]\01 - (Allegro giusto).wav" WAVE
TRACK 01 AUDIO
TITLE "(Allegro giusto)"
PERFORMER "Schnabel, Artur"
INDEX 01 00:00:00
TRACK 02 AUDIO
TITLE "Andante"
PERFORMER "Schnabel, Artur"
INDEX 00 03:15:06
FILE "Schnabel, Artur\Bach- Italian Concerto [Schnabel]\02 - Andante.wav" WAVE
INDEX 01 00:00:00
TRACK 03 AUDIO
TITLE "Presto"
PERFORMER "Schnabel, Artur"
INDEX 00 05:32:23
FILE "Schnabel, Artur\Bach- Italian Concerto [Schnabel]\03 - Presto.wav" WAVE
INDEX 01 00:00:00
TRACK 04 AUDIO
TITLE "Fantasia"
PERFORMER "Schnabel, Artur"
INDEX 00 03:11:70
FILE "Schnabel, Artur\Bach- Italian Concerto [Schnabel]\04 - Fantasia.wav" WAVE
INDEX 01 00:00:00
FILE "Schnabel, Artur\Bach- Italian Concerto [Schnabel]\05 - Fugue.wav" WAVE
TRACK 05 AUDIO
TITLE "Fugue"
PERFORMER "Schnabel, Artur"
INDEX 01 00:00:00
TRACK 06 AUDIO
TITLE "Prelude in D, Book 1"
PERFORMER "Schnabel, Artur"
INDEX 00 04:11:37
FILE "Schnabel, Artur\Bach- Italian Concerto [Schnabel]\06 - Prelude in D, Book 1.wav" WAVE
INDEX 01 00:00:00
FILE "Schnabel, Artur\Bach- Italian Concerto [Schnabel]\07 - Fugue in D, Book 1.wav" WAVE
TRACK 07 AUDIO
TITLE "Fugue in D, Book 1"
PERFORMER "Schnabel, Artur"
INDEX 01 00:00:00
TRACK 08 AUDIO
TITLE "Toccata in C minor, BWV 911: Introduction - Allegro"
PERFORMER "Schnabel, Artur"
INDEX 00 02:22:10
FILE "Schnabel, Artur\Bach- Italian Concerto [Schnabel]\08 - Toccata in C minor, BWV 911- Introduction - Allegro.wav" WAVE
INDEX 01 00:00:00
FILE "Schnabel, Artur\Bach- Italian Concerto [Schnabel]\09 - Toccata in C minor, BWV 911- Fugue I.wav" WAVE
TRACK 09 AUDIO
TITLE "Toccata in C minor, BWV 911: Fugue I"
PERFORMER "Schnabel, Artur"
INDEX 01 00:00:00
FILE "Schnabel, Artur\Bach- Italian Concerto [Schnabel]\10 - Toccata in C minor, BWV 911- Fugue II.wav" WAVE
TRACK 10 AUDIO
TITLE "Toccata in C minor, BWV 911: Fugue II"
PERFORMER "Schnabel, Artur"
INDEX 01 00:00:00
TRACK 11 AUDIO
TITLE "Toccata in D major, BWV 912: Introduction - Allegro"
PERFORMER "Schnabel, Artur"
INDEX 00 04:26:39
FILE "Schnabel, Artur\Bach- Italian Concerto [Schnabel]\11 - Toccata in D major, BWV 912- Introduction - Allegro.wav" WAVE
INDEX 01 00:00:00
FILE "Schnabel, Artur\Bach- Italian Concerto [Schnabel]\12 - Toccata in D major, BWV 912- Adagio - Fugato - Adagio.wav" WAVE
TRACK 12 AUDIO
TITLE "Toccata in D major, BWV 912: Adagio - Fugato - Adagio"
PERFORMER "Schnabel, Artur"
INDEX 01 00:00:00
FILE "Schnabel, Artur\Bach- Italian Concerto [Schnabel]\13 - Toccata in D major, BWV 912- Fugue.wav" WAVE
TRACK 13 AUDIO
TITLE "Toccata in D major, BWV 912: Fugue"
PERFORMER "Schnabel, Artur"
INDEX 01 00:00:00
TRACK 14 AUDIO
TITLE "(Allegro)"
PERFORMER "Schnabel, Artur"
INDEX 00 02:40:49
FILE "Schnabel, Artur\Bach- Italian Concerto [Schnabel]\14 - (Allegro).wav" WAVE
INDEX 01 00:00:00
TRACK 15 AUDIO
TITLE "Adagio ovvero Largo"
PERFORMER "Schnabel, Artur"
INDEX 00 06:37:40
FILE "Schnabel, Artur\Bach- Italian Concerto [Schnabel]\15 - Adagio ovvero Largo.wav" WAVE
INDEX 01 00:00:00
TRACK 16 AUDIO
TITLE "Fuga"
PERFORMER "Schnabel, Artur"
INDEX 00 07:34:46
FILE "Schnabel, Artur\Bach- Italian Concerto [Schnabel]\16 - Fuga.wav" WAVE
INDEX 01 00:00:00
展开

Schnabel:Bach:Italian Concero BWV971;Toccatas BWV911&912;Concerto No.2 for Two Keyboards BWV1061的短评(11)

推荐Schnabel:Bach:Italian Concero BWV971;Toccatas BWV911&912;Concerto No.2 for Two Keyboards BWV1061的豆列

喜欢Schnabel:Bach:Italian Concero BWV971;Toccatas BWV911&912;Concerto No.2 for Two Keyboards BWV1061的人也喜欢

了解更多音乐信息

豆瓣
免费下载 iOS / Android 版客户端