唱片资源

[已注销]
2009-10-04 看过
转载的,先感谢原作者 凌亚传媒

请使用正规eMule MOD下载,迅雷自重。

ED2K链接:
ed2k://|file|Pachelbel's%20Greatest%20Hit%20The%20Ultimate%20Canon.ape|343735912|295B50CADA737C637A632415461000BB|h=HXBEFGWKJWRKVGM5KBFGGEHGJ7AP3YAM|/

文件MD5值:295B50CADA737C637A632415461000BB

文件信息:
格式 : Monkey's Audio
长度 : 1h 12mn
码率 : 629 Kbps
声道: 2 channels
采样级别 : 44.1 KHz
采样位数: 16 bits
压缩比: 2.243


顺便提供本人正在用的CUE:

PERFORMER "Robert Salter & Guildhall String Ensemble with Paul Nicholson"
TITLE "Pachelbel's Greatest Hit: The Ultimate Canon"
FILE "Pachelbel's Greatest Hit The Ultimate Canon.ape" WAVE
  TRACK 01 AUDIO
    TITLE "Canon in D"
    PERFORMER "Jean-Francois Paillard Chamber Orchestra"
    INDEX 01 00:00:00
  TRACK 02 AUDIO
    TITLE "Canon in D"
    PERFORMER "James Galway & Munich Radio Orchestra with John Georgiadis"
    INDEX 01 06:05:25
  TRACK 03 AUDIO
    TITLE "Canon (over a Basso Ostinato)"
    PERFORMER "Peerless 2x2"
    INDEX 01 11:17:46
  TRACK 04 AUDIO
    TITLE "Canon of the Three Stars"
    PERFORMER "Isao Tomita & the Plasma Symphony Orchestra"
    INDEX 01 14:40:16
  TRACK 05 AUDIO
    TITLE "How, Where, When? (Canon in D)"
    PERFORMER "Cleo Laine, James Galway & John Dankworth"
    INDEX 01 20:29:68
  TRACK 06 AUDIO
    TITLE "Earth Angel"
    PERFORMER "The Hampton String Quartet"
    INDEX 01 24:17:03
  TRACK 07 AUDIO
    TITLE "Canon"
    PERFORMER "The Canadian Brass"
    INDEX 01 28:38:71
  TRACK 08 AUDIO
    TITLE "Canon in F"
    PERFORMER "BRR"
    INDEX 01 33:12:48
  TRACK 09 AUDIO
    TITLE "Variations on the Pachelbel Canon in D"
    PERFORMER "The Concord String Quartet"
    INDEX 01 38:46:30
  TRACK 10 AUDIO
    TITLE "Canon"
    PERFORMER "Clive Carroll"
    INDEX 01 47:03:18
  TRACK 11 AUDIO
    TITLE "Canon"
    PERFORMER "Platinum"
    INDEX 01 51:08:58
  TRACK 12 AUDIO
    TITLE "Sweet Home (based on Pachelbel's Canon)"
    PERFORMER "Sakibara, Matsumoto, Tashiro & Ikeda"
    INDEX 01 53:48:34
  TRACK 13 AUDIO
    TITLE "Canon"
    PERFORMER "Romero, Glaser, Irwin, Washington & Leatherbarrow"
    INDEX 01 59:56:66
  TRACK 14 AUDIO
    TITLE "Canon in D"
    PERFORMER "Arthur Fiedler Sinfionetta"
    INDEX 01 64:09:62
  TRACK 15 AUDIO
    TITLE "Canon & Gigue in D"
    PERFORMER "Robert Salter & Guildhall String Ensemble with Paul Nicholson"
    INDEX 01 67:28:70
10 有用
0 没用

查看更多豆瓣高分专辑

评论 11条

查看全部11条回复·打开App

Pachelbel's Greatest Hit: The Ultimate Canon的更多乐评

推荐Pachelbel's Greatest Hit: The Ultimate Canon的豆列

了解更多音乐信息

豆瓣
免费下载 iOS / Android 版客户端